1. This site uses cookies. By continuing to use this site, you are agreeing to our use of cookies. Learn More.

Cannot figure out This Cue File

Discussion in 'Audio' started by tempe1820, May 22, 2014.

  1. tempe1820

    tempe1820 Member

    Joined:
    Aug 2, 2011
    Messages:
    1
    Likes Received:
    0
    Trophy Points:
    11
    I'm trying to figure out what a DJ friend of mine did to this cue file to not make it work. I'm posting the code and could someone tell me what is wrong with it. I'm a novice at this but I can follow directions with no problem. I would really appreciate it as all of his cue files will not work!!!!!!

    FILE "C:\Users\Keith\Music\Beyonce 2014\The Diva Series - Beyonce.wav" WAVE
    TRACK 01 AUDIO
    TITLE "Crazy In Love (Club Killers Remix)"
    INDEX 01 00:00:00
    TRACK 02 AUDIO
    TITLE "Grown Woman (Monsieur Adi Remix)"
    INDEX 01 03:57:48
    TRACK 03 AUDIO
    TITLE "Sweet Dreams (Steve Pitron & Max Sanna Club Mix)"
    INDEX 01 08:10:36
    TRACK 04 AUDIO
    TITLE "One Night Only (Dance Mix)"
    INDEX 01 13:31:32
    TRACK 05 AUDIO
    TITLE "Get Me Bodied (Hex Hector Mixshow Edit)"
    INDEX 01 19:30:52
    TRACK 06 AUDIO
    TITLE "Baby Boy (Junior Vasquez Club Anthem Remix)"
    INDEX 01 23:29:59
    TRACK 07 AUDIO
    TITLE "Upgrade You (Peter Rauhofer Club Mix)"
    INDEX 01 29:11:00
    TRACK 08 AUDIO
    TITLE "Run The World (Girls) (Jochen Simms Club Remix)"
    INDEX 01 31:27:40
    TRACK 09 AUDIO
    TITLE "Drunk In Love (Cosmic Dawn Club Mix)"
    INDEX 01 35:40:32
    TRACK 10 AUDIO
    TITLE "Green Light (Freemason's Mixshow Edit)"
    INDEX 01 41:27:30
    TRACK 11 AUDIO
    TITLE "Dèjá Vu (Freemasons Club Mix)"
    INDEX 01 46:23:17
    TRACK 12 AUDIO
    TITLE "Naughty Girl (Calderone & Quayle Club Mix)"
    INDEX 01 51:11:59
    TRACK 13 AUDIO
    TITLE "Standing On The Sun (Tiesto Remix)"
    INDEX 01 56:16:40
    TRACK 14 AUDIO
    TITLE "Blow (Monsieur Adi Remix)"
    INDEX 01 61:39:02
    TRACK 15 AUDIO
    TITLE "Countdown (Christian Davies Remix)"
    INDEX 01 66:14:02
    TRACK 16 AUDIO
    TITLE "Partition (Tom Stephan Remix)"
    INDEX 01 70:50:26
    TRACK 17 AUDIO
    TITLE "Ring The Alarm (Freemasons Mixshow Edit)"
    INDEX 01 75:50:02
    TRACK 18 AUDIO
    TITLE "Love On Top (DJ Escape & Tony Coluccio Main Remix)"
    INDEX 01 80:03:06
    TRACK 19 AUDIO
    TITLE "Single Ladies (Put A Ring On It) (Maurice Joshua Club Mix)"
    INDEX 01 84:48:06
    TRACK 20 AUDIO
    TITLE "Halo (Gomi & RasJek Club Mix)"
    INDEX 01 89:27:27
    TRACK 21 AUDIO
    TITLE "Diva (Mr. Mig Club Mix)"
    INDEX 01 95:55:32
    TRACK 22 AUDIO
    TITLE "XO (Cosmic Dawn Club Mix)"
    INDEX 01 102:16:41
    TRACK 23 AUDIO
    TITLE "Irreplaceable (Frediboy Remix)"
    INDEX 01 107:14:61
     
  2. scorpNZ

    scorpNZ Active member

    Joined:
    Mar 23, 2005
    Messages:
    4,011
    Likes Received:
    42
    Trophy Points:
    78
    what program created it.
    Tracks or file/s also have to be in the original location as that's where the cue points to
    C:\Users\Keith\Music\Beyonce 2014\The Diva Series

    edit:you can use notepad to change location of the files by editing this line,it may be necessary to right clik on the cue to untick read only to be able to edit it

    C:\Users\Keith\Music\Beyonce 2014\The Diva Series

    C = hdd partition
    User = computer user folder accounts location
    name = in the above line it's keith switch it for your user name
    Music = music folder where the WAV music was stored
    The Diva Series = Doesn't appear to be a folder & is instead a single large file wav container contianing the tracks

    If the music is else where or on another hdd with a different drive letter edit to suit,anything after this symbol denotes a folder \ so in the line your editing
    C:\Users
    the word user is the name of a folder.

    easiest method is change windows theme to classic view,then open explorer select "tools" in menu bar (if you don't have menu bar it can be accessed by cliking on organize in left column),then select folder options then view then tick box that says "display the full path in the title bar",now when you open explorer & as you navigate the location will appear in the very top bar of explorer

    edit 2:-It may not be necessary to edit anything other than removing the line text in the C:\etc\etc

    below is a cue from a folder i have the cue sheet only includes the tracks,it would appear when drag n dropping the cue to a media player,the player will play the songs from where the cue sheet was held,i can place this particular folder on any drive,drop the cue sheet from that folder in that particular drive & all songs will play

    REM COMMENT "CUETools generated dummy CUE sheet"
    FILE "01 - I'm So Glad.flac" WAVE
    TRACK 01 AUDIO
    INDEX 01 00:00:00
    FILE "02 - Spoonful.flac" WAVE
    TRACK 02 AUDIO
    INDEX 01 00:00:00
    FILE "03 - Outside Woman Blues.flac" WAVE
    TRACK 03 AUDIO
    INDEX 01 00:00:00
    FILE "04 - Pressed Rat & Warthog.flac" WAVE
    TRACK 04 AUDIO
    INDEX 01 00:00:00
    FILE "05 - Sleepy Time Time.flac" WAVE
    TRACK 05 AUDIO
    INDEX 01 00:00:00
    FILE "06 - N.S.U..flac" WAVE
    TRACK 06 AUDIO
    INDEX 01 00:00:00
    FILE "07 - Badge.flac" WAVE
    TRACK 07 AUDIO
    INDEX 01 00:00:00
    FILE "08 - Politician.flac" WAVE
    TRACK 08 AUDIO
    INDEX 01 00:00:00
    FILE "09 - Sweet Wine.flac" WAVE
    TRACK 09 AUDIO
    INDEX 01 00:00:00
    FILE "10 - Rollin' and Tumblin'.flac" WAVE
    TRACK 10 AUDIO
    INDEX 01 00:00:00
    FILE "11 - Stormy Monday.flac" WAVE
    TRACK 11 AUDIO
    INDEX 01 00:00:00
    FILE "12 - Deserted Cities of the Heart.flac" WAVE
    TRACK 12 AUDIO
    INDEX 01 00:00:00
     
    Last edited: May 23, 2014

Share This Page