1. This site uses cookies. By continuing to use this site, you are agreeing to our use of cookies. Learn More.

Cue problems with burrrn and Nero!

Discussion in 'CD-R' started by drslide, Oct 29, 2004.

  1. drslide

    drslide Member

    Joined:
    Oct 29, 2004
    Messages:
    5
    Likes Received:
    0
    Trophy Points:
    11
    I am struggling to burn a mp3 image using a cue file. When i try to open the cue file i get an error message saying "referenced file "---" not found.

    Here is the cue info

    PERFORMER "Paul Oakenfold"
    TITLE "Perfecto Collection"
    FILE "01-Paul_Oakenfold-Perfecto_Collection_CD1.mp3"mp3
    TRACK 01 AUDIO
    TITLE "Double Dutch"
    PERFORMER "Dope Smugglaz"
    INDEX 01 00:00:00
    TRACK 02 AUDIO
    TITLE "Every Women Needs Love (Club Mix)"
    PERFORMER "Stella Browne"
    INDEX 01 05:24:37
    TRACK 03 AUDIO
    TITLE "Jazzin The Way You Know (Ministry Mix)"
    PERFORMER "Jazzy M"
    INDEX 01 11:14:72
    TRACK 04 AUDIO
    TITLE "Bites Da Dust (Dub Mix)"
    PERFORMER "Planet Perfecto"
    INDEX 01 16:40:35
    TRACK 05 AUDIO
    TITLE "She Rides (Joy Mix)"
    PERFORMER "D Fuse & Joy"
    INDEX 01 21:55:10
    TRACK 06 AUDIO
    TITLE "Never Know Love (2002 Mix)"
    PERFORMER "Stella Browne"
    INDEX 01 26:19:17
    TRACK 07 AUDIO
    TITLE "Married To Music (Sneaks mix)"
    PERFORMER "Dope Smugglaz"
    INDEX 01 31:41:27
    TRACK 08 AUDIO
    TITLE "Deep Funk"
    PERFORMER "Hernan Cattaneo"
    INDEX 01 36:53:22
    TRACK 09 AUDIO
    TITLE "I Want Out (Cricket Mix)"
    PERFORMER "Harry Choo"
    INDEX 01 43:01:22
    TRACK 10 AUDIO
    TITLE "Let The Freak (Maas Mix)"
    PERFORMER "Big Ron"
    INDEX 01 49:12:15
    TRACK 11 AUDIO
    TITLE "Ubik"
    PERFORMER "Timo Maas"
    INDEX 01 55:20:52
    TRACK 12 AUDIO
    TITLE "Gos Love (Trash Mix)"
    PERFORMER "Tall Tin Box"
    INDEX 01 61:36:17
    TRACK 13 AUDIO
    TITLE "Touch The Sky"
    PERFORMER "29 Palms"
    INDEX 01 68:06:12

    Here is the location of the file
    D:\my documents 2\Downloads\(Trance) VA-Paul_Oakenfold-Perfecto_Collection-3CD-2002-EGO\CD1

    The file name is

    01-paul_oakenfold-perfecto_collection_cd1-ego

    Please could someone help me out.
     
  2. HALTRON

    HALTRON Member

    Joined:
    Sep 30, 2004
    Messages:
    89
    Likes Received:
    0
    Trophy Points:
    16
  3. drslide

    drslide Member

    Joined:
    Oct 29, 2004
    Messages:
    5
    Likes Received:
    0
    Trophy Points:
    11
    There is no path data, i've put the cue file up on previous thread! makes no sense to me as this happens on most of my cue/mp3 files.
     
  4. HALTRON

    HALTRON Member

    Joined:
    Sep 30, 2004
    Messages:
    89
    Likes Received:
    0
    Trophy Points:
    16
    When in Nero are you trying to import both the cue and bin files into the explorer. I'm led to believe only the cue file should be imported.
     
  5. drslide

    drslide Member

    Joined:
    Oct 29, 2004
    Messages:
    5
    Likes Received:
    0
    Trophy Points:
    11
    i'm fine with cue and bin its just mp3 ones dont seem to work with burrn. Problem solved anyway, using cdrwin. Thanks for your help
     

Share This Page