1. This site uses cookies. By continuing to use this site, you are agreeing to our use of cookies. Learn More.

Cue sheet line 11 syntax error

Discussion in 'CD-R' started by Le_Cojin, Mar 5, 2005.

  1. Le_Cojin

    Le_Cojin Member

    Joined:
    Mar 5, 2005
    Messages:
    2
    Likes Received:
    0
    Trophy Points:
    11
    hello guys,i am new here.

    I downloaded a cd with a cue file and a mp3 file.
    i converted the mp3 in wav,changed the name and the extention in the cue file and i get :Cue sheet line 11 syntax error.
    i don't understand because it was a double cd and i did the same for the cd 2 and it worked .Ps I use Daemon tools and CDmage1-01-5 : same error.

    101-tangerine_dream_-_purgatorio_cd1-bcc.wav

    PERFORMER "Tangerine Dream"
    TITLE "Purgatorio"
    FILE "101-tangerine_dream_-_purgatorio_cd1-bcc.wav" wave
    TRACK 01 AUDIO
    TITLE "Above the Great Dry Land"
    PERFORMER "Tangerine Dream"
    INDEX 01 00:00:00
    TRACK 02 AUDIO
    TITLE "Chasing the Bad Seed"
    PERFORMER "Tangerine Dream"
    INDEX 01 06:19:76
    TRACK 03 AUDIO
    TITLE "Slave to the Gods"
    PERFORMER "Tangerine Dream"
    INDEX 01 15:08:25
    TRACK 04 AUDIO
    TITLE "Hope and Glory"
    PERFORMER "Tangerine Dream"
    INDEX 01 21:40:01
    TRACK 05 AUDIO
    TITLE "Sun Son's Seal (Part One)"
    PERFORMER "Tangerine Dream"
    INDEX 01 28:24:05
    TRACK 06 AUDIO
    TITLE "Beyond All Suns"
    PERFORMER "Tangerine Dream"
    INDEX 01 36:45:39
    TRACK 07 AUDIO
    TITLE "Sisyphus"
    PERFORMER "Tangerine Dream"
    INDEX 01 43:19:50
    TRACK 08 AUDIO
    TITLE "All the Steps to Heaven"
    PERFORMER "Tangerine Dream"
    INDEX 01 47:57:37
    TRACK 09 AUDIO
    TITLE "Mountain of Destiny"
    PERFORMER "Tangerine Dream"
    INDEX 01 61:09:74
     
  2. Nephilim

    Nephilim Moderator Staff Member

    Joined:
    Feb 13, 2003
    Messages:
    14,942
    Likes Received:
    0
    Trophy Points:
    116
  3. Le_Cojin

    Le_Cojin Member

    Joined:
    Mar 5, 2005
    Messages:
    2
    Likes Received:
    0
    Trophy Points:
    11
    Nop
    i tried all 3 options and it only created cue files with one file.

    Thanks a lot.

    Maybe another solution??
     

Share This Page