1. This site uses cookies. By continuing to use this site, you are agreeing to our use of cookies. Learn More.

how to burn this specific type of cue file

Discussion in 'Audio' started by Jiggly45, Mar 22, 2005.

  1. Jiggly45

    Jiggly45 Member

    Joined:
    Mar 22, 2005
    Messages:
    11
    Likes Received:
    0
    Trophy Points:
    11
    i am not new to the whole image burning thing but i am trying to burn a cue image that looks like this....

    PERFORMER "VA"
    TITLE "Techno_Party_2005_Countdown-3CD-2005-eMF"
    FILE "101-va-techno_party_2005_countdown-emf.mp3" MP3
    TRACK 01 AUDIO
    TITLE "fall in love (cyt piano mix)"
    PERFORMER "fantasy project"
    INDEX 01 00:00:00
    TRACK 02 AUDIO
    TITLE "sometimes when we touch"
    PERFORMER "rimini project"
    INDEX 01 04:04:10
    TRACK 03 AUDIO
    TITLE "forever"
    PERFORMER "konrad"
    INDEX 01 08:11:02
    TRACK 04 AUDIO
    TITLE "i got you in my mind"
    PERFORMER "la dance inc"
    INDEX 01 12:21:36
    TRACK 05 AUDIO
    TITLE "ill be good to you"
    PERFORMER "luca zeta"
    INDEX 01 16:23:33
    TRACK 06 AUDIO
    TITLE "feel it in my heart (cyt revival remix)"
    PERFORMER "dj the wave"
    INDEX 01 21:27:40
    TRACK 07 AUDIO
    TITLE "colour of my life"
    PERFORMER "el tone feat pamela"
    INDEX 01 25:19:30
    TRACK 08 AUDIO
    TITLE "nothings gonna change my love for you (x plane italo mix)"
    PERFORMER "cera"
    INDEX 01 29:19:46
    TRACK 09 AUDIO
    TITLE "the love you promised (take on maia remix)"
    PERFORMER "the usual suspects feat maia lee"
    INDEX 01 33:41:61
    TRACK 10 AUDIO
    TITLE "bad boy"
    PERFORMER "casada"
    INDEX 01 38:25:54
    TRACK 11 AUDIO
    TITLE "big bad love (casada remix)"
    PERFORMER "spring break"
    INDEX 01 42:57:66
    TRACK 12 AUDIO
    TITLE "runaway"
    PERFORMER "groove coverage"
    INDEX 01 47:48:42
    TRACK 13 AUDIO
    TITLE "here i go again"
    PERFORMER "mandaryna"
    INDEX 01 52:11:11
    TRACK 14 AUDIO
    TITLE "dial my number"
    PERFORMER "master blaster"
    INDEX 01 56:47:31
    TRACK 15 AUDIO
    TITLE "round and round"
    PERFORMER "dj rad"
    INDEX 01 61:38:50
    TRACK 16 AUDIO
    TITLE "the night (doug laurent mix)"
    PERFORMER "recall vs valerie dore"
    INDEX 01 65:39:53

    as you can see its an audio cd. however no program i have right now nero, alcohol, etc will recognize this type of cue file. and instead of a bin there's just one mp3 file. i've never seen a cd image like this. anyone know how to burn this into separate tracks?
     
  2. djscoop

    djscoop Active member

    Joined:
    Feb 6, 2003
    Messages:
    4,070
    Likes Received:
    0
    Trophy Points:
    66
    this is a music cue file, which is different than those associated with bin files.

    Basically the cue file contains the info for splitting the single mp3 into seperate tracks according to the time of the original CD. there are many tools that can do this, such as mp3 surgeon and mp3 splitter and joiner.
     
  3. Jiggly45

    Jiggly45 Member

    Joined:
    Mar 22, 2005
    Messages:
    11
    Likes Received:
    0
    Trophy Points:
    11
    thanks a lot i got it working with mp3 surgeon
     
  4. djscoop

    djscoop Active member

    Joined:
    Feb 6, 2003
    Messages:
    4,070
    Likes Received:
    0
    Trophy Points:
    66
    glad to help
     

Share This Page