1. This site uses cookies. By continuing to use this site, you are agreeing to our use of cookies. Learn More.

Lg Dp 122 DVD Player problem.

Discussion in 'DVD players' started by Zombiebytes, Jun 18, 2014.

  1. Zombiebytes

    Zombiebytes Newbie

    Joined:
    Jun 18, 2014
    Messages:
    3
    Likes Received:
    0
    Trophy Points:
    1
    I don't know if this is the correct place to post this question so please bear with me. I own a LG dp122 dvd player. The spec's say that it will play
    • MPEG-1
    • MPEG2 PS/TS
    • MPEG4
    • DivX
    • VOb
    But so far i can get it to only play AVI files. Is there a formatting issue i don't know about. Or does the videos have to be in a certain format/setting? Any help is welcome.
     
  2. attar

    attar Senior member

    Joined:
    Jun 17, 2005
    Messages:
    11,504
    Likes Received:
    29
    Trophy Points:
    128
    Perhaps the resolution of the video:see if the ones which don't play exceed 720 x 576.
     
  3. Zombiebytes

    Zombiebytes Newbie

    Joined:
    Jun 18, 2014
    Messages:
    3
    Likes Received:
    0
    Trophy Points:
    1
    no no matter what resolution i try still says the same thing. On another front, i tried changing one video into different formats and the only ones that would play are mob or vob. wierd thing is videos i take from the internet that are avi will play fine but ones i convert to avi won't and i use all the same spec's and settings.
     
  4. attar

    attar Senior member

    Joined:
    Jun 17, 2005
    Messages:
    11,504
    Likes Received:
    29
    Trophy Points:
    128
    Compare two of the same type;one that works and one that doesn't using MediaInfo.
    Open one file and click File > Export and save as a .txt file.
    Repeat and post the results.
    PS, don't let MediaInfo install any toolbars etc.
    Get the portable version.
    http://www.videohelp.com/tools/MediaInfo
     
  5. Zombiebytes

    Zombiebytes Newbie

    Joined:
    Jun 18, 2014
    Messages:
    3
    Likes Received:
    0
    Trophy Points:
    1
    this is a video that it will play.

    General
    Complete name :
    Format : AVI
    Format/Info : Audio Video Interleave
    File size : 698 MiB
    Duration : 1h 38mn
    Overall bit rate : 989 Kbps
    Writing library : VirtualDub build 35491/release

    Video
    ID : 0
    Format : MPEG-4 Visual
    Format profile : Advanced Simple@L5
    Format settings, BVOP : 2
    Format settings, QPel : No
    Format settings, GMC : No warppoints
    Format settings, Matrix : Default (H.263)
    Muxing mode : Packed bitstream
    Codec ID : XVID
    Codec ID/Hint : XviD
    Duration : 1h 38mn
    Bit rate : 852 Kbps
    Width : 640 pixels
    Height : 272 pixels
    Display aspect ratio : 2.35:1
    Frame rate : 25.000 fps
    Color space : YUV
    Chroma subsampling : 4:2:0
    Bit depth : 8 bits
    Scan type : Progressive
    Compression mode : Lossy
    Bits/(Pixel*Frame) : 0.196
    Stream size : 601 MiB (86%)
    Writing library : XviD 65

    Audio
    ID : 1
    Format : MPEG Audio
    Format version : Version 1
    Format profile : Layer 3
    Mode : Joint stereo
    Mode extension : MS Stereo
    Codec ID : 55
    Codec ID/Hint : MP3
    Duration : 1h 38mn
    Bit rate mode : Constant
    Bit rate : 128 Kbps
    Channel(s) : 2 channels
    Sampling rate : 48.0 KHz
    Compression mode : Lossy
    Stream size : 90.3 MiB (13%)
    Alignment : Split accross interleaves
    Interleave, duration : 40 ms (1.00 video frame)
    Interleave, preload duration : 500 ms
    Writing library : LAME3.99r
    Encoding settings : -m j -V 4 -q 3 -lowpass 17 -b 128



    and here is one it won't play

    General
    Complete name : AVI
    Format : Flash Video
    File size : 507 MiB
    Duration : 2h 26mn
    Overall bit rate : 483 Kbps
    Tagging application : Yet Another Metadata Injector for FLV - Version 1.9

    Video
    Format : AVC
    Format/Info : Advanced Video Codec
    Format profile : High@L2.1
    Format settings, CABAC : Yes
    Format settings, ReFrames : 4 frames
    Codec ID : 7
    Duration : 2h 20mn
    Bit rate : 400 Kbps
    Width : 576 pixels
    Height : 240 pixels
    Display aspect ratio : 2.40:1
    Frame rate mode : Constant
    Frame rate : 25.000 fps
    Color space : YUV
    Chroma subsampling : 4:2:0
    Bit depth : 8 bits
    Scan type : Progressive
    Bits/(Pixel*Frame) : 0.116
    Stream size : 406 MiB (80%)
    Writing library : x264 core 107 r1745 4785e8e
    Encoding settings : cabac=1 / ref=2 / deblock=1:0:0 / analyse=0x3:0x113 / me=hex / subme=6 / psy=1 / psy_rd=1.00:0.00 / mixed_ref=1 / me_range=16 / chroma_me=1 / trellis=1 / 8x8dct=1 / cqm=0 / deadzone=21,11 / fast_pskip=1 / chroma_qp_offset=-2 / threads=24 / sliced_threads=0 / nr=0 / decimate=1 / interlaced=0 / constrained_intra=0 / bframes=3 / b_pyramid=2 / b_adapt=1 / b_bias=0 / direct=1 / weightb=1 / open_gop=0 / weightp=2 / keyint=250 / keyint_min=25 / scenecut=40 / intra_refresh=0 / rc_lookahead=30 / rc=2pass / mbtree=1 / bitrate=400 / ratetol=1.0 / qcomp=0.60 / qpmin=10 / qpmax=51 / qpstep=4 / cplxblur=20.0 / qblur=0.5 / ip_ratio=1.41 / aq=1:1.00

    Audio
    Format : AAC
    Format/Info : Advanced Audio Codec
    Format profile : LC
    Codec ID : 10
    Duration : 2h 26mn
    Bit rate : 94.4 Kbps
    Channel(s) : 2 channels
    Channel positions : Front: L R
    Sampling rate : 44.1 KHz
    Compression mode : Lossy
    Delay relative to video : 40ms
    Stream size : 99.0 MiB (20%)
     
  6. attar

    attar Senior member

    Joined:
    Jun 17, 2005
    Messages:
    11,504
    Likes Received:
    29
    Trophy Points:
    128
    Clipboard01.
    It has to be converted to avi format.

    Try Video to Video converter.
    Add the video.
    Select AVI for the video profile.

    To the right of the screen under 'Audio options' change to 'AC3' and 'Audio sample rate to 48000'.
    Click 'OK' and 'Convert'.



    Look for the portable version.
    http://www.videohelp.com/tools/Video-to-Video-Converter
     
    Last edited: Jun 23, 2014
  7. eddy

    eddy Newbie

    Joined:
    Feb 9, 2015
    Messages:
    2
    Likes Received:
    0
    Trophy Points:
    1
    PLEASE HELP ME before i buy this item in my country. Id like to know if this LG DP122 has a 1080 resolution? is it full hd? and does it really have the hdmi connectivity? thats says here in the website..

    http://www.lazada.com.ph/lg-dp122-2-channel-dvd-player-black-134678.html

    please upload a photo of this dvd player for those who have one, each elevation would be great THANK YOU VERY MUCH. :) i dont have a clue about this item pls help me.
     
  8. xbkrypt0n

    xbkrypt0n Active member

    Joined:
    Jun 16, 2010
    Messages:
    3,154
    Likes Received:
    120
    Trophy Points:
    73
    No point in reviving this old thread, but I'll answer the question. The LG DP122 only has composite video. That means
    no HDMI
    no 1080p
    no HD picture
    [​IMG]

    The original problem in the thread seems to be that while the container format is AVI (or more likely someone just renamed flv to avi), the video is not coded as MPEG-4 (eg. Xvid/Divx).
     
  9. eddy

    eddy Newbie

    Joined:
    Feb 9, 2015
    Messages:
    2
    Likes Received:
    0
    Trophy Points:
    1
    THANK YOU VERY MUCH FOR THE INFORMATION :)
     

Share This Page