1. This site uses cookies. By continuing to use this site, you are agreeing to our use of cookies. Learn More.

Please help

Discussion in 'CD-R' started by vexator, Sep 28, 2003.

  1. vexator

    vexator Member

    Joined:
    Sep 28, 2003
    Messages:
    2
    Likes Received:
    0
    Trophy Points:
    11
    I was stupid enough to burn quite an amount of CDRs from BIN files in NERO using MODE 1 RAW (i think its was 2352 bytes per sector), without having CUE files. Only later did I aquire CUE files in which I discovered that some of them were mixed mode CD's with DATA and AUDIO tracks. Is there ANY way to extract the original BIN from the burnt CDRs and burn them again correctly using the CUE files ???

    I will be greatly honored if someone enlightened me. A lot of CDRs are in question that I cannot get anymore. Thanks !!
     
  2. Rotary

    Rotary Senior member

    Joined:
    Apr 10, 2003
    Messages:
    8,353
    Likes Received:
    0
    Trophy Points:
    116
    hi

    not sure but here goes! i think cdrwin and alcohol makes cues? just make it from your cdr's! i think? CDMAGE will make cue files from bins?

    but shoey is the guy to ask on this! hes a mod here...

    Thx...
     
  3. vexator

    vexator Member

    Joined:
    Sep 28, 2003
    Messages:
    2
    Likes Received:
    0
    Trophy Points:
    11
    Thanx, but now I do have correct CUE files for the BIN files I already burnt in MODE 1 RAW 2352. The question is can I extract the original BIN file from these CD's so that I can burn it again with the correct CUE files that I now have ? Here is an example of one correct CUE file:

    FILE "analiza sub-molekularnih sumova.bin" BINARY
    TRACK 01 MODE1/2352
    INDEX 01 00:00:00
    TRACK 02 AUDIO
    INDEX 00 50:45:60
    INDEX 01 50:47:60
    TRACK 03 AUDIO
    INDEX 00 51:43:73
    INDEX 01 51:46:00
    TRACK 04 AUDIO
    INDEX 00 53:06:26
    INDEX 01 53:08:28
    TRACK 05 AUDIO
    INDEX 00 54:06:03
    INDEX 01 54:08:05
    TRACK 06 AUDIO
    INDEX 00 58:08:62
    INDEX 01 58:10:64
    TRACK 07 AUDIO
    INDEX 00 59:06:12
    INDEX 01 59:08:14
    TRACK 08 AUDIO
    INDEX 00 61:42:18
    INDEX 01 61:44:20
    TRACK 09 AUDIO
    INDEX 00 63:39:55
    INDEX 01 63:41:57
    TRACK 10 AUDIO
    INDEX 00 65:55:71
    INDEX 01 65:57:73

    and I beleive that I burnt the original BIN )which I don't have anymore as if it had a CUE file like:

    FILE "analiza sub-molekularnih sumova.bin" BINARY
    TRACK 01 MODE1/2352
    INDEX 01 00:00:00

    ??? :)
     

Share This Page