1. This site uses cookies. By continuing to use this site, you are agreeing to our use of cookies. Learn More.

Problems burning new sort of cue with Nero?

Discussion in 'CD-R' started by UR2SLOW, May 15, 2003.

  1. UR2SLOW

    UR2SLOW Guest

    Just installed Nero 5.5.10.28 Enterprise edition. And now I got a funny kind of cue that I did'nt see before. it refers to an mp3 file here it is:

    PERFORMER "VARIOUS"
    TITLE "TUNNEL TRANCE FORCE VOL. 24 / CD 1"
    FILE "101_va_-_ttf_vol_24__cd1_deep_blue_mix-mod.mp3" MP3
    TRACK 01 AUDIO
    TITLE "GROOVE COVERAGE - God Is A Girl (Rocco Mix)"
    INDEX 01 00:00:00
    TRACK 02 AUDIO
    TITLE "DJ DEAN - Protect Your Ears (DJ Dean "Ballanation" Mix - Edit)"
    INDEX 01 04:29:15
    TRACK 03 AUDIO
    TITLE "JORDAN & BAKER - Explode (Epic Extended Mix)"
    INDEX 01 09:00:52
    TRACK 04 AUDIO
    TITLE "KAI TRACID - 4 Just 1 Day (Energy Mix-Edit)"
    INDEX 01 12:01:63
    TRACK 05 AUDIO

    And so on.... now, when i try to load it in to Nero, the Nero software apears to be freezing? does this normaly take a hell of a time?? Or is some thing wrong? or do i need to install some kind of plugin or what?? if there is another pice of burning software please let me know!!

    P.S. I have no problems burning normal bin/cue pair's just this one don't seam to work!!

    Thank's in advance!!
     
  2. Rotary

    Rotary Senior member

    Joined:
    Apr 10, 2003
    Messages:
    8,353
    Likes Received:
    0
    Trophy Points:
    116
    hi

    not sure this is the same issue but!

    on the nero .28 version i downloaed the update and the file was bigtime currupt? first time i've seen that from a reputable company!

    so i just dumped it and have stuck to .15 version and have been watching out for issues like this in regards to version.28 just incase its buggy or not

    just a thought?

    rotary
     

Share This Page